Bit Torrent Scene a public file sharing platform Home Upload Categories About

Warning! Use a VPN When Downloading Torrents!
Your IP Address is . Location is
Avoid LAWSUITS and FINES! Hide your IP ADDRESS with a VPN!
We strongly recommend using Trust.Zone VPN to anonymize your torrenting. It's FREE!
Get VPN Now for FREE!

Umang 2012 11th February HQ XviD

DOWNLOAD TORRENT DOWNLOAD DOWNLOAD ANONYMOUS

Posted on February 13, 2012 in Series » Misc

Size: 1.75 GB , Seeds: 0 , Peers: 0 ( Updated January 24, 2016 - Refresh )

* Download via Magnet Link , * To download files you need a Bittorrent Client , * How to download torrents from Bit Torrent Scene?

Loading...

Internal Files

Umang 2012 11th February HQ XviD
Umang 2012 11th February HQ XviD.avi   1.75 GB

Hash Code

d951a9aeb4fcfc79698a7aafc856c0f00d2083c2

Description


General

Complete name : Umang 2012 11th February HQ XviD.avi

Format : AVI

Format/Info : Audio Video Interleave

Format profile : OpenDML

Format settings : rec

File size : 1.75 GiB

Duration : 1h 57mn

Overall bit rate : 2 132 Kbps

Writing application : AVI-Mux GUI 1.17.8.3, Feb 16 201019:42:50

Video

ID : 0

Format : MPEG-4 Visual

Format profile : Advanced Simple@L5

Format settings, BVOP : 2

Format settings, QPel : No

Format settings, GMC : No warppoints

Format settings, Matrix : Default (H.263)

Codec ID : XVID

Codec ID/Hint : XviD

Duration : 1h 57mn

Bit rate : 2 000 Kbps

Width : 512 pixels

Height : 384 pixels

Display aspect ratio : 4:3

Frame rate : 29.970 fps

Color space : YUV

Chroma subsampling : 4:2:0

Bit depth : 8 bits

Scan type : Progressive

Compression mode : Lossy

Bits/(Pixel*Frame) : 0.339

Stream size : 1.64 GiB (94%)

Writing library : XviD 1.2.1 (UTC 2008-12-04)

Audio

ID : 1

Format : MPEG Audio

Format version : Version 1

Format profile : Layer 3

Mode : Joint stereo

Mode extension : MS Stereo

Codec ID : 55

Codec ID/Hint : MP3

Duration : 1h 57mn

Bit rate mode : Constant

Bit rate : 128 Kbps

Channel(s) : 2 channels

Sampling rate : 48.0 KHz

Compression mode : Lossy

Stream size : 108 MiB (6%)

Alignment : Aligned on interleaves

Interleave, duration : 414 ms (12.40 video frames)

Interleave, preload duration : 216 ms

Title : Umang 2012_11th February HQ XviD Tc0 L2 2ch 48 384 DELAY 0ms

Writing library : LAME3.98r

Encoding settings : -m j -V 4 -q 2 -lowpass 17 -b 128



image

Torrent location

http://kat.ph/umang-2012-11th-february-hq-xvid-t6179684.html

Trackers

Refresh Leechers : Updated January 24, 2016

1. udp://tracker.1337x.org:80/announce

2. udp://denis.stalker.h3q.com:6969/announce

3. http://denis.stalker.h3q.com:6969/announce

4. udp://tracker.publicbt.com:80/announce

5. http://tracker.publicbt.com/announce

6. udp://tracker.openbittorrent.com:80/announce

7. http://tracker.openbittorrent.com/announce

8. udp://tracker.publicbt.com:80/announce

9. http://tracker.publicbt.com/announce

10. http://exodus.desync.com:6969/announce

11. http://tracker.novalayer.org:6969/announce

12. http://pow7.com/announce

13. http://10.rarbg.com/announce

14. http://9.rarbg.com:2710/announce

15. udp://tracker.1337x.org:80/announce

16. http://www.desidhamal.com:2710/pcstfk4vqxwugd3y7ja770ffqqat2orr/announce

17. http://tracker.ex.ua/announce

18. http://fr33dom.h33t.com:3310/announce

Comments

You must log in to add a comment.

Embed Code

Sharing Widget

Top Series ( auto generated report )

FILENAME SIZE SEEDS PEERS ADDED UPD
[i] Taboo.UK.S01E06.HDTV.x264-ORGANiC[ettv] 334.5 MB 15621 11735 1 week 1 week
[i] Arrow.S05E12.HDTV.XviD-FUM[ettv] 350.5 MB 13488 12457 1 week 1 week
[i] Criminal.Minds.S12E12.HDTV.x264-FLEET[PRiME] 243.2 MB 3954 1078 1 week 1 week
[i] 24.Legacy.S01E02.WEB-DL.XviD-FUM[ettv] 350.5 MB 3509 3151 1 week 1 week
[i] The.Walking.Dead.S07E09.HDTV.x264-FUM[ettv] 656.5 MB 3348 6365 1 week 1 week
[i] Supernatural.S12E10.HDTV.XviD-FUM[ettv] 350.5 MB 3234 2345 1 week 1 week
[i] The.Flash.2014.S03E12.HDTV.x264-LOL[ettv] 232.5 MB 2768 3922 1 week 1 week
[i] Grimm.S06E06.HDTV.x264-SVA[PRiME] 243.2 MB 2767 16203 1 week 1 week
[i] Suits.S06E13.PROPER.HDTV.x264-KILLERS[eztv] 208.66 MB 2743 2056 1 week 1 week
[i] Marvels.Agents.of.S.H.I.E.L.D.S04E14.720p.HDTV.x265.ShAaNiG.mkv 215.32 MB 2574 883 4 days 4 days
advertising ( remove )