Bit Torrent Scene a public file sharing platform Home Upload Categories About

Warning! Use a VPN When Downloading Torrents!
Your IP Address is . Location is
Avoid LAWSUITS and FINES! Hide your IP ADDRESS with a VPN!
We strongly recommend using Trust.Zone VPN to anonymize your torrenting. It's FREE!
Get VPN Now for FREE!

Mirrors [2008-2010] Duology DVDRiP XViD AC3-LEGi0N

DOWNLOAD TORRENT DOWNLOAD DOWNLOAD ANONYMOUS

Posted on October 27, 2010 in Movies » Misc , verified torrent

Size: 2.79 GB , Seeds: 0 , Peers: 0 ( Updated December 2, 2015 - Refresh )

* Download via Magnet Link , * To download files you need a Bittorrent Client , * How to download torrents from Bit Torrent Scene?

Loading...

Internal Files

Mirrors [2008-2010] Duology DVDRiP XViD AC3-LEGi0N
Mirrors 2 UNRATED 2010 DVDRiP XViD AC3-LEGi0N.avi   1.37 GB
Mirrors UNRATED 2008 DVDRiP XViD AC3-LEGi0N.avi   1.37 GB
Mirrors SAMPLE.avi   33.43 MB
Mirrors 2 SAMPLE.avi   20.3 MB
thedesiadda.com   0 Byte

Hash Code

5b242c70f026e301e7d214458a2519ef2707ad6d

Description

Mirrors [2008-2010] Duology DVDRiP XViD AC3-LEGi0N





Mirrors [2008-2010] Duology DVDRiP XViD AC3-LEGi0N









General

Format: AVI

File size: ToTal : 2.78 GiB  Mirrors : 1.37 GiB - Mirrors 2 : 1.37 GiB

Duration:............................: 1h 51mn              : 1h 30mn

Overall bit rate :...................: 1 757 Kbps           : 2 175 Kbps

Source: .............................: Mirrors   (DVDR-VoMiT Thanks!!)

Source:..............................: Mirrors 2 (DVDR-KART3LDVD Thanks!!)









Mirrors UNRATED 2008 DVDRiP XViD AC3-LEGi0N



IMDb Rating: 6.1/10      

Genre:  Action | Adventure | Comedy | Thriller

Release: 15 August 2008 (USA)  

IMDb Link: http://www.imdb.com/title/tt0790686/

Trailer: http://www.imdb.com/video/imdb/vi1518141721/

Subs: N/A  

Encoded By : TH0RN



Video

Format: MPEG-4 Visual

Format profile: Advanced Simple@L5

Format settings, BVOP: Yes

Format settings, QPel: No

Format settings, GMC : No warppoints

Muxing mode: Packed bitstream

Codec ID: XVID

Bit rate: 1 304 Kbps

Width: 720 pixels

Height: 384 pixels

Display aspect ratio: 1.875

Frame rate: 23.976 fps

Chroma subsampling: 4:2:0

Bit depth: 24 bits

Scan type: Progressive

Bits/(Pixel*Frame): 0.197

Stream size: 1.01 GiB (74%)



Audio

Format: AC3

Bit rate mode: Constant

Bit rate: 448 Kbps

Channel(s): 6 channels

Sampling rate: 48.0 KHz

Stream size: 357 MiB (25%)





An ex-cop and his family are the target of an evil force

that is using mirrors as a gateway into their home.  



Tagline:

N/A





Kiefer Sutherland ... Ben Carson

Paula Patton        ... Amy Carson

Cameron Boyce        ... Michael Carson

Erica Gluck        ... Daisy Carson

Amy Smart        ... Angela Carson

Mary Beth Peil        ... Anna Esseker

John Shrapnel        ... Lorenzo Sapelli

Jason Flemyng        ... Det. Larry Byrne

Tim Ahern        ... Dr. Morris

Julian Glover        ... Robert Esseker











Mirrors 2 UNRATED 2010 DVDRiP XViD AC3-LEGi0N



IMDb Rating: 4.8/10      

Genre:  Horror | Mystery | Thriller

Release: 19 October 2010 (USA)  

IMDb Link: http://www.imdb.com/title/tt1576699/

Trailer: http://www.imdb.com/video/screenplay/vi2044594457/

Subs: N/A  

Encoded By : HiTM4N



Video

Format: MPEG-4 Visual

Format profile: Advanced Simple@L5

Format settings, BVOP: Yes

Format settings, QPel: No

Format settings, GMC : No warppoints

Muxing mode: Packed bitstream

Codec ID: XVID

Bit rate: 1 717 Kbps

Width: 720 pixels

Height: 400 pixels

Display aspect ratio: 16:9

Frame rate: 23.976 fps

Chroma subsampling: 4:2:0

Bit depth: 24 bits

Scan type: Progressive

Bits/(Pixel*Frame): 0.249

Stream size: 1.08 GiB



Audio

Format: AC3

Bit rate mode: Constant

Bit rate: 448 Kbps

Channel(s): 6 channels

Sampling rate: 48.0 KHz

Stream size: 289 MiB





When Max, who is recovering from a traumatic accident,

takes a job as a nighttime security guard, he begins to  

see visions of a young mysterious woman in the store's Mirror.



Tagline:

N/A





Nick Stahl        ... Max Matheson

Emmanuelle Vaugier ... Elizabeth Reigns (as Emmanuelle Vaugiér)

Evan Jones        ... Henry Schow

Christy Carlson Romano ... Jenna McCarty (as Christy Romano)

William Katt        ... Jack Matheson

Lawrence Turner ... Keller Landreaux

Stephanie Honore ... Eleanor Reigns (as Stephanie Honoré Sanchez)

Jon Michael Davis ... Ryan Parker

Wayne Pére        ... Detective Piccirilli (as Wayne Péré)

Lance E. Nichols ... Detective Huston



GREETZ

Noir | Joshua08 | DiLLoN | HiTM4N | BMB |



bigimac | HiVE-CM8 | CLASSiFiED |



Lungbuster | skillz | ELEKTRI4KA |



FLAWL3SS | IMAGiNE |  THC | CRYS | iNK |



AND ALL AFFILIATED SITES  

 



SAMPLE'S INCLUDED!







Mirrors















Mirrors 2
















Trackers

Refresh Leechers : Updated December 2, 2015

http://fr33dom.h33t.com:3310/announce

Comments

You must log in to add a comment.

Embed Code

Sharing Widget

Top Movies ( auto generated report )

FILENAME SIZE SEEDS PEERS ADDED UPD
[i] Doctor Strange (2016) [1080p] [YTS AG] 1.75 GB 7706 2908 1 week 4 days
[i] Underworld.Blood.Wars.2016.1080p.WEB-DL.DD5.1.H264-FGT-[rarbg.to].torrent 3.17 GB 10409 3709 1 week 1 week
[i] Moana 2016 1080p BluRay x264 DTS-JYK 2.7 GB 8183 4076 1 week 1 week
[i] A.Dogs.Purpose.2017.HDCAM.XviD.MrGrey.torrent 851.82 MB 7088 5617 1 week 1 week
[i] Brice 3 2016 FRENCH BDRip XviD-EXTREME 695.32 MB 6417 2964 1 week 1 week
[i] Allied (2016) [720p] [YTS AG] 915.32 MB 5329 6143 1 week 1 week
[i] Doctor Strange (2016) [720p] [YTS AG] 844.93 MB 5039 9103 1 week 1 week
[i] Moana.2016.720p.BRRip.950MB.MkvCage.mkv 953.3 MB 4712 20413 1 week 1 week
[i] Allied (2016) [1080p] [YTS AG] (1) 1.89 GB 4331 5906 1 week 1 week
[i] Doctor.Strange.2016.1080p.WEB-DL.DD5.1.H264-FGT 3.96 GB 3540 5860 1 week 1 week
advertising ( remove )