Bit Torrent Scene a public file sharing platform Home Upload Categories About

Warning! Use a VPN When Downloading Torrents!
Your IP Address is . Location is
Avoid LAWSUITS and FINES! Hide your IP ADDRESS with a VPN!
We strongly recommend using Trust.Zone VPN to anonymize your torrenting. It's FREE!
Get VPN Now for FREE!

Men In Black 3 [2012] 720p DVDRip elite-pirates

DOWNLOAD TORRENT DOWNLOAD DOWNLOAD ANONYMOUS

Posted on March 9, 2013 in Movies » Comedy , verified torrent

Size: 742.3 MB , Seeds: 0 , Peers: 1 ( Updated January 31, 2016 - Refresh )

* Download via Magnet Link , * To download files you need a Bittorrent Client , * How to download torrents from Bit Torrent Scene?

Loading...

Internal Files

Men In Black 3 [2012] 720p DVDRip elite-pirates.com
Men In Black 3 [2012] 720p DVDRip elite-pirates.com.avi   741.35 MB
Torrent downloaded from AhaShare.com.txt   59 Byte
Torrent downloaded from elite-pirates.com.txt   52 Byte

Hash Code

1c3c659fe9c9aea269b97e4a248bba12b837283c

Description


Imdb : http://www.imdb.com/title/tt1409024/

Encoder : Dcloser

Genres : Action | Comedy | Sci-Fi

Director : Barry Sonnenfeld

Writers : Etan Cohen, Lowell Cunningham (Malibu comic)

Audio Language : English

Country : USA | United Arab Emirates







General

Complete name : Men In Black 3 [2012] 720p DVDRip elite-pirates.com.avi

Format : AVI

Format/Info : Audio Video Interleave

File size : 741 MiB

Duration : 1h 45mn

Overall bit rate : 978 Kbps

Writing library : VirtualDub build 32842/release



Video

ID : 0

Format : AVC

Format/Info : Advanced Video Codec

Format profile : High@L3.1

Format settings, CABAC : Yes

Format settings, ReFrames : 3 frames

Codec ID : H264

Duration : 1h 45mn

Bit rate : 777 Kbps

Width : 1 280 pixels

Height : 720 pixels

Display aspect ratio : 16:9

Frame rate : 25.000 fps

Color space : YUV

Chroma subsampling : 4:2:0

Bit depth : 8 bits

Scan type : Progressive

Bits/(Pixel*Frame) : 0.034

Stream size : 589 MiB (79%)

Writing library : x264 core 120 r2120bm 0c7dab9

Encoding settings : cabac=1 / ref=3 / deblock=1:0:0 / analyse=0x3:0x113 / me=hex



Audio

ID : 1

Format : MPEG Audio

Format version : Version 1

Format profile : Layer 3

Codec ID : 55

Codec ID/Hint : MP3

Duration : 1h 45mn

Bit rate mode : Constant

Bit rate : 192 Kbps

Channel(s) : 2 channels

Sampling rate : 44.1 KHz

Compression mode : Lossy

Stream size : 145 MiB (20%)

Alignment : Split accross interleaves

Interleave, duration : 40 ms (1.00 video frame)

Interleave, preload duration : 500 ms

Writing library : LAMELAME_MAJOR_VERSI



Torrent location

http://kat.ph/men-in-black-3-2012-720p-dvdrip-elite-pirates-t6631245.html

Trackers

Refresh Leechers : Updated January 31, 2016

1. udp://tracker.1337x.org:80/announce

2. udp://tracker.publicbt.com:80/announce

3. udp://tracker.openbittorrent.com:80/announce

4. udp://fr33domtracker.h33t.com:3310/announce

5. http://exodus.desync.com:6969/announce

6. udp://tracker.istole.it:80/announce

7. udp://tracker.publicbt.com:80/announce

8. http://tracker.publicbt.com/announce

9. udp://tracker.istole.it:80/announce

10. http://tracker.istole.it/announce

Comments

You must log in to add a comment.

Embed Code

Sharing Widget

Related torrents

FILENAME SIZE SEEDS PEERS ADDED UPD
[i] Code.Black.S02E16.720p.HDTV.x264-FLEET[PRiME] 1.13 GB 1813 481 1 week 1 week
[i] Code.Black.S02E16.PROPER.HDTV.x264-KILLERS[eztv] 320.91 MB 1192 942 1 week 1 week
[i] Black.Sails.S04E01.HDTV.x264-FLEET[eztv] 476.07 MB 1182 974 3 weeks 3 weeks
[i] Code.Black.S02E16.PROPER.HDTV.x264-KILLERS[ettv] 322.5 MB 930 756 1 week 1 week
[i] Black.Sails.S04E03.HDTV.x264-FLEET[eztv] 471.57 MB 841 1275 6 days 6 days
[i] Code.Black.S02E13.WEB-DL.XviD-FUM[ettv] 350.5 MB 627 1237 1 month 1 month
[i] Black.Sails.S04E03.WEBRip.X264-DEFLATE[ettv] 554.5 MB 607 718 6 days 6 days
[i] Code.Black.S02E15.HDTV.x264-FLEET[eztv] 289.29 MB 605 1211 2 weeks 2 weeks
[i] Black.Sails.S04E03.720p.WEBRip.450MB.MkvCage.mkv 451.65 MB 576 536 6 days 6 days
[i] Black.Sails.S04E02.HDTV.x264-FLEET[eztv] 307.16 MB 554 871 1 week 1 week

Top Movies ( auto generated report )

FILENAME SIZE SEEDS PEERS ADDED UPD
[i] Doctor Strange (2016) [1080p] [YTS AG] 1.75 GB 13647 10948 3 days 1 day
[i] Allied (2016) [720p] [YTS AG] 915.32 MB 5329 6143 3 days 3 days
[i] Doctor Strange (2016) [720p] [YTS AG] 844.93 MB 5039 9103 3 days 3 days
[i] Allied (2016) [1080p] [YTS AG] (1) 1.89 GB 4331 5906 3 days 3 days
[i] Manchester by the Sea (2016) [720p] [YTS AG] 1000.07 MB 4307 2734 1 week 1 week
[i] Frank.and.Lola.2016.BRRip.XViD-ETRG 706.3 MB 4226 8134 1 week 1 week
[i] Hacksaw Ridge (2016) [720p] [YTS AG] 1 GB 3811 6591 1 week 1 week
[i] Doctor.Strange.2016.1080p.WEB-DL.DD5.1.H264-FGT 3.96 GB 3540 5860 5 days 5 days
[i] Underworld Blood Wars 2016 1080p WEB-DL x264 AC3-JYK 2.52 GB 3428 3718 1 week 1 week
[i] Hacksaw Ridge (2016) [1080p] [YTS AG] 2.12 GB 3408 6412 1 week 1 week
advertising ( remove )