Death.of.a.Shadow.[Dood.van.een.Schaduw].2012.FLEMISH.BRRip.XviD-Kat

DOWNLOAD TORRENT DOWNLOAD DOWNLOAD ANONYMOUS

Posted on June 2, 2013 in Movies » Misc

Size: 500.3 MB , Seeds: 4 , Peers: 1 ( Updated June 15, 2016 - Refresh )

* Download via Magnet Link , * To download files you need a Bittorrent Client , * How to download torrents from Bit Torrent Scene?

Loading...

Scrape History ( seeds + peers )

Internal Files

Death.of.a.Shadow.[Dood.van.een.Schaduw].2012.FLEMISH.720p.BRRip.XviD-Kat.avi
Death.of.a.Shadow.[Dood.van.een.Schaduw].2012.FLEMISH.720p.BRRip.XviD-Kat.avi   499.49 MB

Hash Code

27907a4e5c736d2abcbd4fa75d98d7044f60e2b1

Description


Death of a Shadow (2012)



SCREENSHOT



Plot: Stuck in a dark limbo between life and death, a deceased soldier Nathan Rijckx (Matthias Schoenaerts) collects shadows of dying men and women to buy back his own second chance at life. Obsessed by a girl he met the moment before he died, the thought of seeing his beloved again drives the soldier to regain access to the world of the living. But when he discovers that she's already in love with someone else, jealousy clouds his mind and pushes him toward a bitter decision, a decision not without its consequences...

Academy Award Nominee Best Live Action Short Film 2013.



Cast:

Matthias Schoenaerts ... Nathan Rijckx

Laura Verlinden ... Sarah Winters

Peter van den Eede ... Collector Of Shadows

Benjamin Ramon ... Daniel Hainaut

Amandine Zurbuchen ... Nurse

Brian Piezel ... Boran Kassovic

Denis Duron ... Jan Ternauw

Gregory Rabat ... New Photographer

Emile Boudaille ... Thomas Belcourt

Bruno Clément ... German Soldier

Franck Maréco ... German Soldier

Daniel Rechul ... German Soldier

Laurent Marchetti ... German Soldier

Guillaume Sentier ... German Soldier

Simon Robas ... German Soldier



Details

Original title: Dood van een Schaduw / Mort d'une ombre

Genre: Short | Drama | Fantasy

Runtime: 20 min

Country: Belgium | France

Language: Flemish | French

Trailer: http://www.youtube.com/watch?v=92hfifZ9GWA

Subtitles: http://www.subtitleseeker.com/2312702/Death+of+a+Shadow/Subtitles/



Director: Tom Van Avermaet

Writer: Tom Van Avermaet



IMDb: http://www.imdb.com/title/tt2312702/



--------------------------------------------------------------------------------



Awards & Nominations:



Academy Awards

2013

Nominated

Best Short Film, Live Action



Fargo Film Festival

2013

Won

Best Narrative Short



Gérardmer Film Festival

2013

Won

Best Short Film



European Film Awards

2013

Nominated

Best Short Film



L.A. Shorts Fest

2012

Won

Best of the Fest



Leuven International Short Film Festival

2012

Won

Audience Award



Valladolid International Film Festival

2012

Won

Prix UIP Valladolid (European Short Film)



--------------------------------------------------------------------------------



MediaInfo:



General

Format : AVI

Format/Info : Audio Video Interleave

File size : 499 MiB

Duration : 20mn 18s

Overall bit rate : 3 438 Kbps

Writing application : VirtualDubMod 1.5.10.2 (build 2540/release)

Writing library : VirtualDubMod build 2540/release



Video

ID : 0

Format : MPEG-4 Visual

Format profile : Advanced Simple@L5

Format settings, BVOP : 2

Format settings, QPel : No

Format settings, GMC : No warppoints

Format settings, Matrix : Default (H.263)

Muxing mode : Packed bitstream

Codec ID : XVID

Codec ID/Hint : XviD

Duration : 20mn 18s

Bit rate : 3 044 Kbps

Width : 1 280 pixels

Height : 536 pixels

Display aspect ratio : 2.40:1

Frame rate : 24.000 fps

Color space : YUV

Chroma subsampling : 4:2:0

Bit depth : 8 bits

Scan type : Progressive

Compression mode : Lossy

Bits/(Pixel*Frame) : 0.185

Stream size : 442 MiB (89%)

Writing library : XviD 64



Audio

ID : 1

Format : AC-3

Format/Info : Audio Coding 3

Mode extension : CM (complete main)

Format settings, Endianness : Big

Codec ID : 2000

Duration : 20mn 18s

Bit rate mode : Constant

Bit rate : 384 Kbps

Channel(s) : 6 channels

Channel positions : Front: L C R, Side: L R, LFE

Sampling rate : 48.0 KHz

Bit depth : 16 bits

Compression mode : Lossy

Stream size : 55.8 MiB (11%)

Alignment : Split accross interleaves

Interleave, duration : 42 ms (1.00 video frame)

Interleave, preload duration : 500 ms



--------------------------------------------------------------------------------



Screenshots:

SCREENSHOT


Torrent location

http://www.1337x.org/torrent/554633/0/

Trackers

Refresh Leechers : Updated June 15, 2016

1. udp://tracker.publicbt.com:80/announce

2. udp://tracker.openbittorrent.com:80/announce

3. udp://fr33domtracker.h33t.com:3310/announce

4. udp://tracker.istole.it:80/announce

5. http://p2pdl.com:2710/announce

6. http://exodus.desync.com/announce

7. udp://9.rarbg.com:2710/announce

8. http://tracker1.wasabii.com.tw:6969/announce

9. udp://fr33dom.h33t.com:3310/announce

10. http://www.h33t.com:3310/announce

Comments

You must log in to add a comment.

Embed Code

Sharing Widget

Related torrents

FILENAME SIZE SEEDS PEERS ADDED UPD
[i] Death.of.a.Shadow.2012.720p.WEB.XVID-AC3-PULSAR 522.5 MB 1 0 3 years 11 months
[i] Walking In The Shadow (Of Death Whiskey Tango Foxtrot Volume #4) - W. J. Lundy [Nm] 3.38 MB 1 2 11 months 8 months
[i] Ken Burns The Civil War - 6of9 - Valley Of The Shadow Of Death 697.15 MB 0 0 8 years 4 months
[i] Gods Wars: Shadow of the Death v1.0 Android 5.58 MB 0 0 4 years 1 year
[i] Shadow (Jpn) - Forever Chaos (2008) [mp3@320] [Melodic Death Metal] 129.32 MB 0 0 1 year 2 months
[i] Shadow (Jpn) - Shadow (2001) [mp3@320] [Melodic Death Metal] 96.79 MB 0 0 1 year 2 months
[i] Collapse (UK) - ....In the Shadow Of Man (2015) [mp3@320] [Thrash/Death Metal] 98.54 MB 0 0 1 year 1 year

Top Movies ( auto generated report )

FILENAME SIZE SEEDS PEERS ADDED UPD
[i] Logan (2017) [1080p] [YTS AG] 2.09 GB 12543 5989 4 days 20 hours
[i] Logan (2017) [720p] [YTS AG] 1014.33 MB 11245 8727 4 days 13 hours
[i] John Wick Chapter 2 (2017) 720p WEB-DL 950MB - MkvCage.torrent 953.3 MB 5497 2500 2 days 1 day
[i] John.Wick.Chapter.2.2017.720p.WEB-DL.XviD.AC3-FGT 3.58 GB 4796 10440 2 days 10 hours
[i] Aftermath (2017) [720p] [YTS AG] 693.73 MB 3337 1985 1 day 2 hours
[i] Aftermath (2017) [1080p] [YTS AG] 1.43 GB 3144 1757 1 day 2 hours
[i] The Assignment (2016) [720p] [YTS AG] 701.82 MB 2784 1711 1 day 2 hours
[i] John.Wick.Chapter.2.2017.WEB-DL.x264-FGT 1.05 GB 2473 905 2 days 17 hours
[i] Free.Fire.2016.1080p.WEB-DL.DD5.1.H264-FGT 3.11 GB 2466 973 3 days 20 hours
[i] The Assignment (2016) [1080p] [YTS AG] 1.45 GB 2050 1292 1 day 2 hours