Bit Torrent Scene a public file sharing platform Home Upload Categories About

Warning! Use a VPN When Downloading Torrents!
Your IP Address is . Location is
Avoid LAWSUITS and FINES! Hide your IP ADDRESS with a VPN!
We strongly recommend using Trust.Zone VPN to anonymize your torrenting. It's FREE!
Get VPN Now for FREE!

A Good Day to Die Hard 2013 720p BRRip x264 MP4 AAC-CC

DOWNLOAD TORRENT DOWNLOAD DOWNLOAD ANONYMOUS

Posted by Cavemania •428 on May 24, 2013 in Movies » Action , verified torrent

Size: 2.67 GB , Seeds: 0 , Peers: 1 ( Updated June 6, 2016 - Refresh )

* Download via Magnet Link , * To download files you need a Bittorrent Client , * How to download torrents from Bit Torrent Scene?

Loading...

Internal Files

A Good Day to Die Hard 2013 720p BRRip x264 MP4 AAC-CC
Sample.mp4   25.69 MB
A Good Day to Die Hard 2013 720p BRRip x264 MP4 AAC-CC.mp4_snapshot_00.40.04.png   1.38 MB
A Good Day to Die Hard 2013 720p BRRip x264 MP4 AAC-CC.mp4_snapshot_00.53.15.png   1.11 MB
A Good Day to Die Hard 2013 720p BRRip x264 MP4 AAC-CC.mp4_snapshot_00.22.16.png   1.1 MB
A Good Day to Die Hard 2013 720p BRRip x264 MP4 AAC-CC.mp4_snapshot_01.32.32.png   1.05 MB
A Good Day to Die Hard 2013 720p BRRip x264 MP4 AAC-CC.mp4_snapshot_01.09.59.png   1.03 MB
A Good Day to Die Hard 2013 720p BRRip x264 MP4 AAC-CC.mp4_snapshot_00.05.28.png   1.01 MB
Info.txt   4.34 KB
Indonesian.srt   88.81 KB
Farsi-Persian.srt   78.78 KB
English.srt   64.54 KB
Portuguese.srt   60.4 KB
Brazilian.srt   60.4 KB
Romanian.srt   56.33 KB
Arabic.srt   48.87 KB
Dutch.srt   45.95 KB
A Good Day to Die Hard 2013 720p BRRip x264 MP4 AAC-CC.mp4   2.64 GB
Torrent Downloaded from digtorrent.org.txt   184 Byte
Torrent downloaded from PublicHD.EU.txt   89 Byte
Torrent downloaded from Silvertorrent.org.txt   86 Byte
Torrent downloaded from extratorrent.com.txt   83 Byte
Torrent_downloaded_from_AhaShare.com.txt   63 Byte
Torrent downloaded from torrentmafia.org.txt   57 Byte
Torrent downloaded from extremlymtorrents.com.txt   56 Byte
Torrent_downloaded_from pimp4003-torrents.me.txt   52 Byte
Torrent downloaded from btscene.eu .txt   47 Byte
Torrent_downloaded_from divxhunt.me.txt   43 Byte
Torrent downloaded from Piratebox.com.txt   41 Byte
Torrent downloaded from www.p2pdl.com.txt   37 Byte
Torrent downloaded from h33t.com.txt   32 Byte

Hash Code

8d32f3599879f51643193962a7d05fdf8d88a75a

Description

SCREENSHOT

http://www.imdb.com/title/tt1606378/

Source: A.Good.Day.To.Die.Hard.2013.EXTENDED.720p.BluRay.DTS-ES.x264-PublicHD Thanks!

Subs: Arabic, Brazilian, Dutch, English, Farsi-Persian, Indonesian, Portuguese, Romanian.

Sample and Screens included.

Extended version.

General
Complete name : A Good Day to Die Hard 2013 720p BRRip x264 MP4 AAC-CC.mp4
Format : MPEG-4
Format profile : Base Media
Codec ID : isom
File size : 2.64 GiB
Duration : 1h 41mn
Overall bit rate mode : Variable
Overall bit rate : 3 736 Kbps
Encoded date : UTC 2013-05-23 12:55:45
Tagged date : UTC 2013-05-23 12:55:45
Writing application : Yamb 2.1.0.0

Video
ID : 1
Format : AVC
Format/Info : Advanced Video Codec
Format profile : High@L4.1
Format settings, CABAC : Yes
Format settings, ReFrames : 5 frames
Codec ID : avc1
Codec ID/Info : Advanced Video Coding
Duration : 1h 41mn
Bit rate : 3 453 Kbps
Maximum bit rate : 40.0 Mbps
Width : 1 280 pixels
Height : 696 pixels
Display aspect ratio : 1.85:1
Frame rate mode : Variable
Frame rate : 23.976 fps
Minimum frame rate : 19.048 fps
Maximum frame rate : 25.000 fps
Color space : YUV
Chroma subsampling : 4:2:0
Bit depth : 8 bits
Scan type : Progressive
Bits/(Pixel*Frame) : 0.162
Stream size : 2.37 GiB (90%)
Writing library : x264 core 112
Encoding settings : cabac=1 / ref=5 / deblock=1:0:0 / analyse=0x3:0x113 / me=hex / subme=7 / psy=1 / psy_rd=1.00:0.00 / mixed_ref=1 / me_range=16 / chroma_me=1 / trellis=1 / 8x8dct=1 / cqm=0 / deadzone=21,11 / fast_pskip=1 / chroma_qp_offset=-2 / threads=3 / sliced_threads=0 / nr=0 / decimate=1 / interlaced=0 / constrained_intra=0 / bframes=5 / b_pyramid=2 / b_adapt=2 / b_bias=0 / direct=1 / weightb=1 / open_gop=0 / weightp=2 / keyint=240 / keyint_min=23 / scenecut=40 / intra_refresh=0 / rc_lookahead=50 / rc=abr / mbtree=1 / bitrate=3453 / ratetol=1.0 / qcomp=0.60 / qpmin=3 / qpmax=51 / qpstep=4 / ip_ratio=1.40 / aq=1:1.00
Encoded date : UTC 2013-05-24 04:56:02
Tagged date : UTC 2013-05-23 12:59:31
Color primaries : BT.709
Transfer characteristics : BT.709
Matrix coefficients : BT.709

Audio
ID : 2
Format : AAC
Format/Info : Advanced Audio Codec
Format profile : LC
Codec ID : 40
Duration : 1h 41mn
Bit rate mode : Variable
Bit rate : 384 Kbps
Maximum bit rate : 768 Kbps
Channel(s) : 6 channels
Channel positions : Front: L C R, Side: L R, LFE
Sampling rate : 48.0 KHz
Compression mode : Lossy
Delay relative to video : 83ms
Stream size : 278 MiB (10%)
Language : English
Encoded date : UTC 2013-05-23 12:58:35
Tagged date : UTC 2013-05-23 12:59:31

Enjoy...

Coming soon: Shadow of a Doubt, La Haine, Chungking Express and more.

SCREENSHOT
SCREENSHOT
SCREENSHOT
SCREENSHOT
SCREENSHOT
SCREENSHOT

Trackers

Refresh Leechers : Updated June 6, 2016

1. http://fr33dom.h33t.com:3310/announce

2. udp://tracker.istole.it:80/announce

3. http://exodus.desync.com:6969/announce

4. udp://tracker.openbittorrent.com:80

5. udp://9.rarbg.com:2710/announce

6. udp://tracker.publicbt.com:80/announce

7. http://tracker.thepiratebay.org/announce

8. http://tracker.yify-torrents.com/announce

9. udp://fr33domtracker.h33t.com:3310/announce

10. udp://11.rarbg.com/announce

11. http://94.228.192.98/announce

12. http://pimp4003-torrents.me:2710/announce.php

Comments

You must log in to add a comment.

Embed Code

Sharing Widget

Related torrents

FILENAME SIZE SEEDS PEERS ADDED UPD
[i] Good Kids (2016) [720p] [YTS AG] 653 MB 1131 618 1 month 1 month
[i] Good Kids (2016) [1080p] [YTS AG] 1.36 GB 800 386 1 month 1 month
[i] The.Good.Place.S01E01.HDTV.x264-KILLERS[ettv] 326.5 MB 622 29 5 months 4 months
[i] The.Good.the.Bad.and.the.Ugly.1966 REMASTERED BDRip 1080p Ita Eng x265-NAHOM.torrent 2.82 GB 607 140 2 weeks 2 weeks
[i] BrazzersExxtra - Dolly Leigh, Lauren Phillips - Good Things Cum in Small and Big Packages XXX 2017
posted by sanyika in Porn - Movies
454 MB 600 518 6 days 6 days
[i] The.Good.Fight.S01E02.WEBRip.XviD-FUM[ettv] 430.5 MB 587 277 4 days 4 days
[i] The.Good.Fight.S01E01.HDTV.x264-FLEET[eztv] 194.16 MB 556 188 4 days 4 days
[i] DCV-003 Is Good Send To Document TV × PRESTIGE PREMIUM House? 03... [JAV]
posted by ivanesko261 in Porn - Movies
2.24 GB 548 334 5 months 5 months
[i] The.Good.Place.S01E03.HDTV.x264-KILLERS[ettv] 168.5 MB 545 26 5 months 4 months
[i] The Good Neighbor 2016 1080p WEB-DL x264 AC3-JYK 2.68 GB 447 242 1 month 1 month

Top Movies ( auto generated report )

FILENAME SIZE SEEDS PEERS ADDED UPD
[i] Doctor Strange (2016) [1080p] [YTS AG] 1.75 GB 7706 2908 1 week 3 days
[i] Underworld.Blood.Wars.2016.1080p.WEB-DL.DD5.1.H264-FGT-[rarbg.to].torrent 3.17 GB 10409 3709 1 week 1 week
[i] Moana 2016 1080p BluRay x264 DTS-JYK 2.7 GB 8183 4076 1 week 6 days
[i] A.Dogs.Purpose.2017.HDCAM.XviD.MrGrey.torrent 851.82 MB 7088 5617 1 week 1 week
[i] Brice 3 2016 FRENCH BDRip XviD-EXTREME 695.32 MB 6417 2964 1 week 1 week
[i] Allied (2016) [720p] [YTS AG] 915.32 MB 5329 6143 1 week 1 week
[i] Doctor Strange (2016) [720p] [YTS AG] 844.93 MB 5039 9103 1 week 1 week
[i] Moana.2016.720p.BRRip.950MB.MkvCage.mkv 953.3 MB 4712 20413 1 week 1 week
[i] Allied (2016) [1080p] [YTS AG] (1) 1.89 GB 4331 5906 1 week 1 week
[i] Doctor.Strange.2016.1080p.WEB-DL.DD5.1.H264-FGT 3.96 GB 3540 5860 1 week 1 week
advertising ( remove )